cup Разделы cup Лучшие видеоуроки
Видео уроки по хакингу (31 урок) (RUS)
Видео уроки по хакингу (31 урок) (RUS)
Видеокурс Как создать Перспективный Форум с нуля (2011)
Видеокурс Как создать Перспективный Форум с нуля (2011)
Wordpress – Профессиональный блог за один день (Попов/2009)
Wordpress – Профессиональный блог за один день (Попов/2009)
Шейпинг для похудения (2010) SATRip
Шейпинг для похудения (2010) SATRip
Бодифлекс с Мариной Корпан (SATRip/2009)
Бодифлекс с Мариной Корпан (SATRip/2009)
Лучки - пучки с Октябриной Ганичкиной (2009) (26 серий) SATRip
Лучки - пучки с Октябриной Ганичкиной (2009) (26 серий) SATRip
Дыхательная гимнастика А. Н. Стрельниковой
Дыхательная гимнастика А. Н. Стрельниковой
Видеокурс Цифровая зеркалка для новичка, или как делать отличные фотографии (2010/RUS)
Видеокурс Цифровая зеркалка для новичка, или как делать отличные фотографии (2010/RUS)
Отопление частного дома своими руками (2011) Видеокурс
Отопление частного дома своими руками (2011) Видеокурс
Гимнастика для шеи (2009) DVDRip
Гимнастика для шеи (2009) DVDRip

Онлайн ВидеоКурс «Памм Инвестирование» (2014)

Онлайн ВидеоКурс «Памм Инвестирование» (2014)


Здравствуйте, уважаемые форекс трейдеры. Очень часто в комментариях к статьям на нашем форекс портале вы просите рассказать о том как правильно инвестировать в памм счета. Специально для вас я подготовил серию видео уроков, которые вместе составляют курс «Памм инвестирование«. В этот раз я решил не делать какую-то программную оболочку, как у других обучающих курсов, а просто выложить все уроки на одной странице для удобного просмотра

Что такое Памм Счет?

Памм счет — это форма доверительного управления, при которой ваши деньги фактически остаются у вас на счету (т.е. риск обмана управляющим отсутствует), но при этом управляющий (опытный трейдер) распоряжается вашими средствами для принятия торговых решений. Естественно не бесплатно. Оплата за управление вашими деньгами — в виде процента от прибыли. Как правило это 20-50% (зависит от конкретного счета). Т.к. взимается процент от прибыли, если прибыли нет — вы ничего не платите. Т.е. памм управляющему выгодно, чтобы ваши деньги приумножались. Подробнее о принципе работы памм счета см. здесь.

Неужели все так просто?

Конечно есть свои подводные камни. Ведь управляющие на паммах — обычные люди, которые тоже ошибаются. И памм счет с высокой доходностью может через какое-то время стать убыточным. Также кто-то из управляющих торгует активно, кто-то наоборот открывает сделки редко, выбирая момент. Есть агрессивные счета с большой доходностью и высокими рисками, а есть и консервативные паммы. Как выбрать памм счет? Как минимизировать риски? Когда входить и выходить из инвестиций? А также о других аспектах инвестирования в паммы мы поговорим в уроках курса «Памм Инвестирование«, которые вы можете просмотреть онлайн ниже.

General
Complete name : C:UsersвиталийDesktopЧто такое памм счета на форекс.mp4
Format : MPEG-4
Format profile : Base Media / Version 2
Codec ID : mp42
File size : 17.8 MiB
Duration : 9mn 36s
Overall bit rate mode : Variable
Overall bit rate : 258 Kbps
Encoded date : UTC 2014-01-08 12:58:36
Tagged date : UTC 2014-01-08 12:58:36
gsst : 0
gstd : 576620
gssd : B4A7D69A3MH1391257945621795
gshh : r11---sn-aigllnez.googlevideo.com

Video
ID : 1
Format : AVC
Format/Info : Advanced Video Codec
Format profile : Baseline@L3.0
Format settings, CABAC : No
Format settings, ReFrames : 1 frame
Codec ID : avc1
Codec ID/Info : Advanced Video Coding
Duration : 9mn 36s
Bit rate : 160 Kbps
Maximum bit rate : 1 856 Kbps
Width : 640 pixels
Height : 360 pixels
Display aspect ratio : 16:9
Frame rate mode : Constant
Frame rate : 30.000 fps
Color space : YUV
Chroma subsampling : 4:2:0
Bit depth : 8 bits
Scan type : Progressive
Bits/(Pixel*Frame) : 0.023
Stream size : 11.0 MiB (62%)
Tagged date : UTC 2014-01-08 12:58:39

Audio
ID : 2
Format : AAC
Format/Info : Advanced Audio Codec
Format profile : LC
Codec ID : 40
Duration : 9mn 36s
Bit rate mode : Variable
Bit rate : 96.0 Kbps
Maximum bit rate : 101 Kbps
Channel count : 2 channels
Channel positions : Front: L R
Sampling rate : 44.1 KHz
Compression mode : Lossy
Stream size : 6.60 MiB (37%)
Title : IsoMedia File Produced by Google, 5-11-2011
Encoded date : UTC 2014-01-08 12:58:37
Tagged date : UTC 2014-01-08 12:58:39

1) Введение



2) Анализ Рейтинга ПАММ счетов



3) Анализ мониторинга Памм счета



4) Когда входить и выходить из Памма



5) Как определить использование мартингейла



6) Портфельное инвестирование




7) Социальная информация


Комментариев (0)      
Видеоуроки . Добавил: baks111. Просмотров: 157
  • Не нравится
  • 0
  • Нравится
Похожие новости Другие новости по теме: Ссылки на новость Онлайн ВидеоКурс «Памм Инвестирование» (2014) Ссылки на видеоурок Онлайн ВидеоКурс «Памм Инвестирование» (2014):


html-cсылка

Ссылка для форумов

Прямая ссылка
cup Добавление комментария

cup Вход на сайт
Как качать бесплатно!


cup Лучшие новости за месяц cup С нами сейчас.. cup Облако тегов cup Наш опрос

Free-war.net | Карта сайта | Контакты. Copyright © 2009-2016.
Правила публикации | Правообладателям

Бесплатные portable программы фильмы без регистрации музыка новинки книги скачать новый софт скачать сериалы без регистрации DVDRip кино в HD обновления програм популярные музыкальные хиты без регистрации и смс бесплатный софт