cup Разделы cup Лучшие видеоуроки
Видео уроки по хакингу (31 урок) (RUS)
Видео уроки по хакингу (31 урок) (RUS)
Видеокурс Как создать Перспективный Форум с нуля (2011)
Видеокурс Как создать Перспективный Форум с нуля (2011)
Шейпинг для похудения (2010) SATRip
Шейпинг для похудения (2010) SATRip
Wordpress – Профессиональный блог за один день (Попов/2009)
Wordpress – Профессиональный блог за один день (Попов/2009)
Бодифлекс с Мариной Корпан (SATRip/2009)
Бодифлекс с Мариной Корпан (SATRip/2009)
Лучки - пучки с Октябриной Ганичкиной (2009) (26 серий) SATRip
Лучки - пучки с Октябриной Ганичкиной (2009) (26 серий) SATRip
Дыхательная гимнастика А. Н. Стрельниковой
Дыхательная гимнастика А. Н. Стрельниковой
Гимнастика для шеи (2009) DVDRip
Гимнастика для шеи (2009) DVDRip
Видеокурс Цифровая зеркалка для новичка, или как делать отличные фотографии (2010/RUS)
Видеокурс Цифровая зеркалка для новичка, или как делать отличные фотографии (2010/RUS)
Отопление частного дома своими руками (2011) Видеокурс
Отопление частного дома своими руками (2011) Видеокурс

Вебинар «Тренды 2014? — узнай что будет актуальным на форекс в (2014 году!)

Вебинар «Тренды 2014? — узнай что будет актуальным на форекс в (2014 году!)


Всем привет! Уже совсем скоро многих из нас ждут: президент по телевизору, подушка из салата оливье и мандарины под елкой. Грядет 2014 год. Что же будет с валютным рынком? Куда пойдут EURUSD, GBPUSD, XAUUSD, USDJPY, USDCHF и другие валютные пары? Ждет ли нас очередная волна кризиса? Какие форекс советники и стратегии будут наиболее актуальными?

Все это и многое другое мы обсудим на предстоящем вебинаре «Тренды 2014? на форекс.

Format : MPEG-4
Format profile : Base Media / Version 2
Codec ID : mp42
File size : 141 MiB
Duration : 1h 41mn
Overall bit rate mode : Variable
Overall bit rate : 195 Kbps
Encoded date : UTC 2013-12-15 10:33:26
Tagged date : UTC 2013-12-15 10:33:26
gsst : 0
gstd : 6062915
gssd : B4A7D6E4AHH1390379904244785
gshh : r10---sn-n8v7sn7e.googlevideo.com

Video
ID : 1
Format : AVC
Format/Info : Advanced Video Codec
Format profile : Baseline@L2.2
Format settings, CABAC : No
Format settings, ReFrames : 1 frame
Codec ID : avc1
Codec ID/Info : Advanced Video Coding
Duration : 1h 41mn
Bit rate : 96.7 Kbps
Maximum bit rate : 1 282 Kbps
Width : 640 pixels
Height : 360 pixels
Display aspect ratio : 16:9
Frame rate mode : Constant
Frame rate : 15.000 fps
Color space : YUV
Chroma subsampling : 4:2:0
Bit depth : 8 bits
Scan type : Progressive
Bits/(Pixel*Frame) : 0.028
Stream size : 69.9 MiB (50%)
Tagged date : UTC 2013-12-15 10:34:03

Audio
ID : 2
Format : AAC
Format/Info : Advanced Audio Codec
Format profile : LC
Codec ID : 40
Duration : 1h 41mn
Bit rate mode : Variable
Bit rate : 96.0 Kbps
Maximum bit rate : 105 Kbps
Channel count : 2 channels
Channel positions : Front: L R
Sampling rate : 44.1 KHz
Compression mode : Lossy
Stream size : 69.4 MiB (49%)
Title : IsoMedia File Produced by Google, 5-11-2011
Encoded date : UTC 2013-12-15 10:33:44
Tagged date : UTC 2013-12-15 10:34:03

Download/Скачать : Вебинар «Тренды 2014? — узнай что будет актуальным на форекс в (2014 году!)



Комментариев (0)      
Видеоуроки . Добавил: baks111. Просмотров: 191
  • Не нравится
  • 0
  • Нравится
Похожие новости Другие новости по теме: Ссылки на новость Вебинар «Тренды 2014? — узнай что будет актуальным на форекс в (2014 году!) Ссылки на видеоурок Вебинар «Тренды 2014? — узнай что будет актуальным на форекс в (2014 году!):


html-cсылка

Ссылка для форумов

Прямая ссылка
cup Добавление комментария

cup Вход на сайт
Как качать бесплатно!

cup Лучшие новости за месяц cup С нами сейчас.. cup Облако тегов cup Наш опрос

Free-war.net | Карта сайта | Контакты. Copyright © 2009-2017.
Правила публикации | Правообладателям

Бесплатные portable программы фильмы без регистрации музыка новинки книги скачать новый софт скачать сериалы без регистрации DVDRip кино в HD обновления програм популярные музыкальные хиты без регистрации и смс бесплатный софт