cup Разделы cup Лучшие видеоуроки
Видео уроки по хакингу (31 урок) (RUS)
Видео уроки по хакингу (31 урок) (RUS)
Видеокурс Как создать Перспективный Форум с нуля (2011)
Видеокурс Как создать Перспективный Форум с нуля (2011)
Шейпинг для похудения (2010) SATRip
Шейпинг для похудения (2010) SATRip
Wordpress – Профессиональный блог за один день (Попов/2009)
Wordpress – Профессиональный блог за один день (Попов/2009)
Бодифлекс с Мариной Корпан (SATRip/2009)
Бодифлекс с Мариной Корпан (SATRip/2009)
Лучки - пучки с Октябриной Ганичкиной (2009) (26 серий) SATRip
Лучки - пучки с Октябриной Ганичкиной (2009) (26 серий) SATRip
Дыхательная гимнастика А. Н. Стрельниковой
Дыхательная гимнастика А. Н. Стрельниковой
Гимнастика для шеи (2009) DVDRip
Гимнастика для шеи (2009) DVDRip
Видеокурс Цифровая зеркалка для новичка, или как делать отличные фотографии (2010/RUS)
Видеокурс Цифровая зеркалка для новичка, или как делать отличные фотографии (2010/RUS)
Отопление частного дома своими руками (2011) Видеокурс
Отопление частного дома своими руками (2011) Видеокурс

«Психология трейдинга». Вебинар-провокация (2014)

«Психология трейдинга». Вебинар-провокация (2014)


Добрый день, дамы и господа торговцы на Forex! Признайтесь себе честно: Сколько денег вы потеряли из-за эмоций? Сколько убыточных сделок закрыли из-за того что они ушли в минус и вас это раздражало? А сколько раз валюта сразу же разворачивалась, после того, как вы зафиксировали убыток?

До 80% успеха в трейдинге на форекс зависит от психологии. Огромную значимость имеет мани менеджмент и только потом стратегия. Не все это понимают, но такова суровая реальность. Как победить себя? Как оставаться невозмутимым в любой ситуации? Как защититься от негативных эмоций, затмевающих разум? Настало время прокачать свои навыки контроля эмоций в трейдинге.

Что вы узнаете на вебинаре?

Роль эмоционального состояния в трейдинге

Как наш мозг обрабатывает информацию и какие «баги» есть в нашей голове)

Замкнутый круг начинающего трейдера и как из него выбраться

Ваше окружение — что делать с домашними?

Рабочие методики борьбы со стрессом. Только практические фишки, никаких медитаций.

И многое другое…

Format : MPEG-4
Format profile : Base Media / Version 2
Codec ID : mp42
File size : 194 MiB
Duration : 1h 26mn
Overall bit rate mode : Variable
Overall bit rate : 313 Kbps
Encoded date : UTC 2014-01-20 11:21:49
Tagged date : UTC 2014-01-20 11:21:49
gsst : 0
gstd : 5196648
gssd : BADC23AE8HH1390372541898567
gshh : r8---sn-n8v7lnes.googlevideo.com

Video
ID : 1
Format : AVC
Format/Info : Advanced Video Codec
Format profile : Baseline@L3.0
Format settings, CABAC : No
Format settings, ReFrames : 1 frame
Format settings, GOP : M=1, N=60
Codec ID : avc1
Codec ID/Info : Advanced Video Coding
Duration : 1h 26mn
Bit rate : 214 Kbps
Maximum bit rate : 2 172 Kbps
Width : 640 pixels
Height : 360 pixels
Display aspect ratio : 16:9
Frame rate mode : Constant
Frame rate : 30.000 fps
Color space : YUV
Chroma subsampling : 4:2:0
Bit depth : 8 bits
Scan type : Progressive
Bits/(Pixel*Frame) : 0.031
Stream size : 133 MiB (68%)
Tagged date : UTC 2014-01-20 11:22:24

Audio
ID : 2
Format : AAC
Format/Info : Advanced Audio Codec
Format profile : LC
Codec ID : 40
Duration : 1h 26mn
Bit rate mode : Variable
Bit rate : 96.0 Kbps
Maximum bit rate : 104 Kbps
Channel count : 2 channels
Channel positions : Front: L R
Sampling rate : 44.1 KHz
Compression mode : Lossy
Stream size : 59.5 MiB (31%)
Title : IsoMedia File Produced by Google, 5-11-2011
Encoded date : UTC 2014-01-20 11:22:06
Tagged date : UTC 2014-01-20 11:22:24
Размер: 193.61 Mb

Download/Скачать : «Психология трейдинга». Вебинар-провокация (2014)



Комментариев (0)      
Видеоуроки . Добавил: baks111. Просмотров: 244
  • Не нравится
  • 0
  • Нравится
Похожие новости Другие новости по теме: Ссылки на новость «Психология трейдинга». Вебинар-провокация (2014) Ссылки на видеоурок «Психология трейдинга». Вебинар-провокация (2014):


html-cсылка

Ссылка для форумов

Прямая ссылка
cup Добавление комментария

cup Вход на сайт
Как качать бесплатно!

cup Лучшие новости за месяц cup С нами сейчас.. cup Облако тегов cup Наш опрос

Free-war.net | Карта сайта | Контакты. Copyright © 2009-2017.
Правила публикации | Правообладателям

Бесплатные portable программы фильмы без регистрации музыка новинки книги скачать новый софт скачать сериалы без регистрации DVDRip кино в HD обновления програм популярные музыкальные хиты без регистрации и смс бесплатный софт