cup Разделы cup Лучшие видеоуроки
Видео уроки по хакингу (31 урок) (RUS)
Видео уроки по хакингу (31 урок) (RUS)
Видеокурс Как создать Перспективный Форум с нуля (2011)
Видеокурс Как создать Перспективный Форум с нуля (2011)
Шейпинг для похудения (2010) SATRip
Шейпинг для похудения (2010) SATRip
Wordpress – Профессиональный блог за один день (Попов/2009)
Wordpress – Профессиональный блог за один день (Попов/2009)
Бодифлекс с Мариной Корпан (SATRip/2009)
Бодифлекс с Мариной Корпан (SATRip/2009)
Лучки - пучки с Октябриной Ганичкиной (2009) (26 серий) SATRip
Лучки - пучки с Октябриной Ганичкиной (2009) (26 серий) SATRip
Дыхательная гимнастика А. Н. Стрельниковой
Дыхательная гимнастика А. Н. Стрельниковой
Гимнастика для шеи (2009) DVDRip
Гимнастика для шеи (2009) DVDRip
Видеокурс Цифровая зеркалка для новичка, или как делать отличные фотографии (2010/RUS)
Видеокурс Цифровая зеркалка для новичка, или как делать отличные фотографии (2010/RUS)
Отопление частного дома своими руками (2011) Видеокурс
Отопление частного дома своими руками (2011) Видеокурс

Вебинар Главный секрет заработка на Forex / Вебинар Ответы на вопросы трейдеров (2013/2 урока)

Вебинар Главный секрет заработка на Forex / Вебинар Ответы на вопросы трейдеров (2013/2 урока)


О фильме: Тема у нас будет «Главный секрет заработка на форекс». Будут развенчаны мифы, вы узнаете секретные секреты, методы разгона депозита с 0 до первого миллиона и еще много-много интересного.

Вебинар Главный секрет заработка на Forex / Вебинар Ответы на вопросы трейдеров (2013/2 урока)Вебинар Главный секрет заработка на Forex / Вебинар Ответы на вопросы трейдеров (2013/2 урока)Вебинар Главный секрет заработка на Forex / Вебинар Ответы на вопросы трейдеров (2013/2 урока)


Download/Скачать : Вебинар Главный секрет заработка на Forex (2013/1 урок)




О фильме: Наш второй вебинар посвящен ВАМ, дорогие читатели. В прямом эфире трейдеры получили ответы на самые наболевшие вопросы, естественно по теме форекса

Download/Скачать : Вебинар «Ответы на вопросы трейдеров» (2013/2 урок)




Год выхода: 2013
Время: 1h 10mn / 1h 47mn
Format : AVI
Format/Info : Audio Video Interleave
File size : 163 MiB
Duration : 1h 10mn
Overall bit rate : 326 Kbps
Format : MPEG-4 Visual
Format settings, BVOP : 2
Format settings, QPel : No
Format settings, GMC : No warppoints
Format settings, Matrix : Default (H.263)
Codec ID : XVID
Codec ID/Hint : XviD
Duration : 1h 10mn
Bit rate : 185 Kbps
Width : 640 pixels
Height : 360 pixels
Display aspect ratio : 16:9
Frame rate : 30.000 fps
Color space : YUV
Chroma subsampling : 4:2:0
Bit depth : 8 bits
Scan type : Progressive
Compression mode : Lossy
Bits/(Pixel*Frame) : 0.027
Stream size : 92.6 MiB (57%)
Writing library : XviD 1.2.1 (UTC 2008-12-04)

Audio
ID : 1
Format : MPEG Audio
Format version : Version 1
Format profile : Layer 3
Mode : Joint stereo
Mode extension : MS Stereo
Codec ID : 55
Codec ID/Hint : MP3
Duration : 1h 10mn
Bit rate mode : Constant
Bit rate : 128 Kbps
Channel(s) : 2 channels
Sampling rate : 44.1 KHz
Compression mode : Lossy
Delay relative to video : 33ms
Stream size : 64.2 MiB (39%)
Alignment : Aligned on interleaves
Interleave, duration : 26 ms (0.78 video frame)
Interleave, preload duration : 522 ms
Writing library : LAME3.98.4
Размер: 163 MiB / 224 MiB
Комментариев (0)      
Видеоуроки . Добавил: baks111. Просмотров: 230
  • Не нравится
  • 0
  • Нравится
Похожие новости Другие новости по теме: Ссылки на новость Вебинар Главный секрет заработка на Forex / Вебинар Ответы на вопросы трейдеров (2013/2 урока) Ссылки на видеоурок Вебинар Главный секрет заработка на Forex / Вебинар Ответы на вопросы трейдеров (2013/2 урока):


html-cсылка

Ссылка для форумов

Прямая ссылка
cup Добавление комментария

cup Вход на сайт
Как качать бесплатно!

cup Лучшие новости за месяц cup С нами сейчас.. cup Облако тегов cup Наш опрос

Free-war.net | Карта сайта | Контакты. Copyright © 2009-2017.
Правила публикации | Правообладателям

Бесплатные portable программы фильмы без регистрации музыка новинки книги скачать новый софт скачать сериалы без регистрации DVDRip кино в HD обновления програм популярные музыкальные хиты без регистрации и смс бесплатный софт