cup Разделы cup Лучшая музыка
Тут зайцев нет 50/50 (2010)
Тут зайцев нет 50/50 (2010)
DJ Board & DJ Kostas - El Night (2009)
DJ Board & DJ Kostas - El Night (2009)
Мурзилки International - Дискография (2002 - 2008)(Popmusic / Музыкальная пародия)
Мурзилки International - Дискография (2002 - 2008)(Popmusic / Музыкальная пародия)
90s Party Mix(2009)
90s Party Mix(2009)
No Sleep Till Compton by Mr. Peter Parker (2009)
No Sleep Till Compton by Mr. Peter Parker (2009)
VA-Золотые хиты зарубежной музыки 80-х (2010)
VA-Золотые хиты зарубежной музыки 80-х (2010)
2Pac & DMX - Ready To Meet Him 2008
2Pac & DMX - Ready To Meet Him 2008
Чарт Радио Рекорд (2012)
Чарт Радио Рекорд (2012)
Billboard Hot 100 (2010)
Billboard Hot 100 (2010)
Virgin Souls - 162 (2003)
Virgin Souls - 162 (2003)

Celine Dion: Taking Chances World Tour 2010 1080p WEB-DL DD+5.1 H.264-MVL

Celine Dion: Taking Chances World Tour 2010 1080p WEB-DL DD+5.1 H.264-MVL


Runtime 1:42:00
Bitrate 13600 kbps
Resolution 1920x1080 (16:9)
Framerate 29.970 frames/s
Ref. Frames 4
Audio English E-AC-3 5.1 @ 640kbps
Size 10.18 GB

Taking Chances World Tour: The Concert is a home video/live album by Canadian recording artist Celine Dion. It was released by Columbia Records on 29 April 2010 in Australia and in early May 2010 in Europe and North America. The concert was issued as a DVD/CD combo in two editions: English-language Taking Chances World Tour: The Concert and French-language Tournee mondiale Taking Chances: le spectacle. Dion had embarked on the 2008–2009 Taking Chances World Tour for promotion of her 2007 studio album Taking Chances. It became one of the highest-grossing concert tours of all time. The performances in Boston and Montreal during the North American leg of Taking Chances World Tour were filmed for a video release and directed by Jean Lamoureux.

Celine Dion: Taking Chances World Tour 2010 1080p WEB-DL DD+5.1 H.264-MVL Celine Dion: Taking Chances World Tour 2010 1080p WEB-DL DD+5.1 H.264-MVL Celine Dion: Taking Chances World Tour 2010 1080p WEB-DL DD+5.1 H.264-MVL Celine Dion: Taking Chances World Tour 2010 1080p WEB-DL DD+5.1 H.264-MVL Celine Dion: Taking Chances World Tour 2010 1080p WEB-DL DD+5.1 H.264-MVL


General
Unique ID : 210246417416365629216250036006558971324 (0x9E2BFCB299CCDE0B9C928043608135BC)
Format : Matroska
Format version : Version 4 / Version 2
File size : 10.2 GiB
Duration : 1 h 42 min
Overall bit rate mode : Variable
Overall bit rate : 14.3 Mb/s
Encoded date : UTC 2016-08-23 14:21:19
Writing application : mkvmerge v9.4.0 ('Knurl') 64bit
Writing library : libebml v1.3.4 + libmatroska v1.4.5

Video
ID : 2
Format : AVC
Format/Info : Advanced Video Codec
Format profile : High@L4
Format settings, CABAC : Yes
Format settings, ReFrames : 4 frames
Codec ID : V_MPEG4/ISO/AVC
Duration : 1 h 42 min
Bit rate mode : Variable
Bit rate : 13.6 Mb/s
Maximum bit rate : 15.0 Mb/s
Width : 1 920 pixels
Height : 1 080 pixels
Display aspect ratio : 16:9
Frame rate mode : Constant
Frame rate : 29.970 (30000/1001) FPS
Color space : YUV
Chroma subsampling : 4:2:0
Bit depth : 8 bits
Scan type : Progressive
Bits/(Pixel*Frame) : 0.219
Stream size : 9.72 GiB (95%)
Writing library : x264 core 148 r2623 d5b2374
Encoding settings : cabac=1 / ref=4 / deblock=1:-1:-1 / analyse=0x3:0x133 / me=umh / subme=9 / psy=1 / psy_rd=1.00:0.15 / mixed_ref=1 / me_range=24 / chroma_me=1 / trellis=2 / 8x8dct=1 / cqm=0 / deadzone=21,11 / fast_pskip=1 / chroma_qp_offset=-3 / threads=34 / lookahead_threads=5 / sliced_threads=0 / nr=150 / decimate=1 / interlaced=0 / bluray_compat=0 / constrained_intra=0 / bframes=8 / b_pyramid=2 / b_adapt=2 / b_bias=0 / direct=3 / weightb=1 / open_gop=0 / weightp=2 / keyint=150 / keyint_min=76 / scenecut=0 / intra_refresh=0 / rc_lookahead=150 / rc=crf / mbtree=1 / crf=18.0 / qcomp=0.60 / qpmin=0 / qpmax=69 / qpstep=4 / vbv_maxrate=15000 / vbv_bufsize=31250 / crf_max=0.0 / nal_hrd=vbr / filler=0 / ip_ratio=1.40 / aq=3:1.00
Language : English
Default : Yes
Forced : No
Color range : Limited
Color primaries : BT.709
Transfer characteristics : BT.709
Matrix coefficients : BT.709

Audio
ID : 1
Format : E-AC-3
Format/Info : Audio Coding 3
Format settings, Endianness : Big
Codec ID : A_EAC3
Duration : 1 h 42 min
Bit rate mode : Constant
Bit rate : 640 kb/s
Channel(s) : 6 channels
Channel positions : Front: L C R, Side: L R, LFE
Sampling rate : 48.0 kHz
Frame rate : 187.500 FPS (256 spf)
Compression mode : Lossy
Stream size : 468 MiB (4%)
Language : English
Default : Yes
Forced : No

Text
ID : 3
Format : UTF-8
Codec ID : S_TEXT/UTF8
Codec ID/Info : UTF-8 Plain Text
Duration : 1 h 41 min
Bit rate : 35 b/s
Count of elements : 970
Stream size : 26.1 KiB (0%)
Language : English
Default : No
Forced : No


Setlist
01. I Drove all Night
02. The Power Of Love
03. Taking Chances
04. Hits Medley (It's All Coming Back To Me Now, Because You Loved Me, To Love You More)
05. Eyes On Me
06. All By Myself
07. I'm Alive
08. Shadow Of Love
09. Fade Away
10. Alone
11. My Love
12. The Prayer
13. Pour Que Tu M'aimes Encore
14. Tribute To Queen Medley (We Will Rock You, The Show Must Go On)
15. Soul Medley (Sex Machine, Soul Man, Lady Marmalade, Sir Duke, Respect, I Got The Feelin', I Got You (I Feel Good), It's a Man's Man's Man's World)
16. Love Can Move Mountains
17. River Deep, Mountain High
18. My Heart Will Go On

Скачать:


Комментариев (0)      
Музыка. Теги: Celine Dion, Taking, Chances, World Tour 2010, 1080p. Добавил: ukisofe. Просмотров: 77
  • Не нравится
  • 0
  • Нравится
Похожие новости Другие новости по теме: Ссылки на новость Celine Dion: Taking Chances World Tour 2010 1080p WEB-DL DD+5.1 H.264-MVL Ссылки на Celine Dion: Taking Chances World Tour 2010 1080p WEB-DL DD+5.1 H.264-MVL:


html-cсылка

Ссылка для форумов

Прямая ссылка
cup Добавление комментария

cup Вход на сайт
Как качать бесплатно!

cup Лучшие новости за месяц cup С нами сейчас.. cup Облако тегов cup Наш опрос

Free-war.net | Карта сайта | Контакты. Copyright © 2009-2017.
Правила публикации | Правообладателям

Бесплатные portable программы фильмы без регистрации музыка новинки книги скачать новый софт скачать сериалы без регистрации DVDRip кино в HD обновления програм популярные музыкальные хиты без регистрации и смс бесплатный софт